Ads





» » James Brown - Black Caesar (Soundtrack) (1973)

James Brown - Black Caesar (Soundtrack) (1973)

James Brown - Black Caesar (Soundtrack) (1973)

James Brown - Black Caesar (Soundtrack) (1973)
EAC Rip | FLAC with CUE and log | scans | 210 mb
MP3 CBR 320kbps | RAR | 94 mb
Genre: soul, funk, soundtrack

Black Caesar is the 1973 soundtrack album by James Brown. This CD was released on 22 September, 1992 and also features a song by Lyn Collins.
"After Isaac Hayes kicked his career into high gear with the popular and influential score for Shaft, and Curtis Mayfield managed the same feat with Superfly, seemingly every major soul star of the early 1970's ended up doing music for a blaxploitation film, and James Brown was certainly no exception. Brown sang the title tune for Larry Cohen's idiosyncratic black crime film Black Caesar, as well as performing ten other pieces for the movie's soundtrack (most written by Brown in collaboration with Fred Wesley); Barry Devorzon's lead-off cut, "Down and Out In New York City", sets up the picture's story, while most of the other five vocal cuts reflect the film's narrative in one way or another (although "Make It Good To Yourself" seems to be here mainly because of it's high funk quotient, and on "Mama Feelgood", Brown appropriately hands the vocal chores over to Lynn Collins). Like most soundtrack albums of the period, Black Caesar sounds rather scattershot, especially when the music is divorced from the film's narrative, and this isn't one of Brown's stellar albums of the 1970's; however, there are several top-notch tracks, especially the much-sampled "The Boss", the potent "Make It Good To Yourself", and the melodramatic "Mama's Dead", and Fred Wesley's superb horn charts, Jimmy Nolen's percussive guitar, and Jabo Starks' dead-on-the-one drumming make even the weaker instrumental cuts worth a quick listen (though just try to imagine a chase scene cut to something with the power of "Mother Popcorn" -- now THAT would be a movie!)"


01. Down And Out In New York City
02. Blind Man Can See It
03. Sportin' Life
04. Dirty Harri
05. The Boss
06. Make It Good To Yourself
07. Lyn Collins - Mama Feelgood
08. Mama's Dead
09. White Lightning (I Mean Moonshine)
10. Chase
11. Like It Is, Like It Was

---
Produced by James Brown
Conducted by James Brown
Arranged by James Brown and Fred Wesley
Mixing and production supervision by Bob Roth

Digitally remastered from the original master tapes by Joseph M. Palmaccio, PolyGram Studios

EAC extraction logfile from 10. August 2006, 16:41 for CD
James Brown / Black Caesar

Used drive : LITE-ON DVDRW SOHW-1633S Adapter: 0 ID: 0
Read mode : Secure with NO C2, accurate stream, disable cache
Read offset correction : 12
Overread into Lead-In and Lead-Out : No

Used output format : Internal WAV Routines
44.100 Hz; 16 Bit; Stereo

Other options :
Fill up missing offset samples with silence : Yes
Delete leading and trailing silent blocks : No
Installed external ASPI interface

Track 1
Filename D:\FLAC\James Brown - Black Caesar (Soundtrack) (1973) [FLAC]\01 - Down And Out In New York City.wav

Pre-gap length 0:00:02.42

Peak level 95.7 %
Track quality 100.0 %
Test CRC B044A626
Copy CRC B044A626
Copy OK

Track 2
Filename D:\FLAC\James Brown - Black Caesar (Soundtrack) (1973) [FLAC]\02 - Blind Man Can See It.wav

Pre-gap length 0:00:02.96

Peak level 88.0 %
Track quality 100.0 %
Test CRC DFEC0DDE
Copy CRC DFEC0DDE
Copy OK

Track 3
Filename D:\FLAC\James Brown - Black Caesar (Soundtrack) (1973) [FLAC]\03 - Sportin' Life.wav

Pre-gap length 0:00:02.09

Peak level 100.0 %
Track quality 100.0 %
Test CRC C7128A76
Copy CRC C7128A76
Copy OK

Track 4
Filename D:\FLAC\James Brown - Black Caesar (Soundtrack) (1973) [FLAC]\04 - Dirty Harri.wav

Pre-gap length 0:00:01.44

Peak level 99.9 %
Track quality 100.0 %
Test CRC 877E5568
Copy CRC 877E5568
Copy OK

Track 5
Filename D:\FLAC\James Brown - Black Caesar (Soundtrack) (1973) [FLAC]\05 - The Boss.wav

Pre-gap length 0:00:01.46

Peak level 99.2 %
Track quality 100.0 %
Test CRC 8CEA823C
Copy CRC 8CEA823C
Copy OK

Track 6
Filename D:\FLAC\James Brown - Black Caesar (Soundtrack) (1973) [FLAC]\06 - Make It Good To Yourself.wav

Pre-gap length 0:00:02.46

Peak level 98.8 %
Track quality 100.0 %
Test CRC BD8A31F2
Copy CRC BD8A31F2
Copy OK

Track 7
Filename D:\FLAC\James Brown - Black Caesar (Soundtrack) (1973) [FLAC]\07 - Lyn Collins - Mama Feelgood.wav

Pre-gap length 0:00:03.36

Peak level 89.6 %
Track quality 99.9 %
Test CRC 94BB6518
Copy CRC 94BB6518
Copy OK

Track 8
Filename D:\FLAC\James Brown - Black Caesar (Soundtrack) (1973) [FLAC]\08 - Mama's Dead.wav

Pre-gap length 0:00:02.93

Peak level 85.8 %
Track quality 100.0 %
Test CRC BF909081
Copy CRC BF909081
Copy OK

Track 9
Filename D:\FLAC\James Brown - Black Caesar (Soundtrack) (1973) [FLAC]\09 - White Lightning (I Mean Moonshine).wav

Pre-gap length 0:00:01.33

Peak level 86.9 %
Track quality 100.0 %
Test CRC D8C550A1
Copy CRC D8C550A1
Copy OK

Track 10
Filename D:\FLAC\James Brown - Black Caesar (Soundtrack) (1973) [FLAC]\10 - Chase.wav

Pre-gap length 0:00:01.40

Peak level 78.9 %
Track quality 100.0 %
Test CRC DE18A640
Copy CRC DE18A640
Copy OK

Track 11
Filename D:\FLAC\James Brown - Black Caesar (Soundtrack) (1973) [FLAC]\11 - Like It Is, Like It Was.wav

Pre-gap length 0:00:02.46

Peak level 91.2 %
Track quality 100.0 %
Test CRC 5ADDF8BA
Copy CRC 5ADDF8BA
Copy OK

No errors occured
Download link:



Links are Interchangeable - No Password - Single Extraction


     Views 268  |  Comments 0
Similar articles
Comments
All rights by AllSoftMac.Com 2011-2015